<?xml version="1.0" standalone="no"?>
<!DOCTYPE svg PUBLIC "-//W3C//DTD SVG 1.1//EN" "http://www.w3.org/Graphics/SVG/1.1/DTD/svg11.dtd" >
<svg xmlns="http://www.w3.org/2000/svg">
<metadata>
This is a custom SVG webfont generated by Font Squirrel.
Copyright   : Copyright c 1996 Microsoft Corporation All rights reserved
Designer    : Vincent Connare
Foundry     : Microsoft Corp
Foundry URL : httpwwwmicrosoftcom
</metadata>
<defs>
<font id="TrebuchetMSRegular" horiz-adv-x="1074" >
<font-face units-per-em="2048" ascent="1638" descent="-410" />
<missing-glyph horiz-adv-x="617" />
<glyph unicode=" "  horiz-adv-x="617" />
<glyph unicode="&#x09;" horiz-adv-x="617" />
<glyph unicode="&#xa0;" horiz-adv-x="617" />
<glyph unicode="!" horiz-adv-x="752" d="M234 131q0 62 44 106t106 44t106 -44t44 -106t-44 -106.5t-106 -44.5t-106 44.5t-44 106.5zM265 1081v410h226v-409q0 -191 -78 -700h-71q-77 503 -77 699z" />
<glyph unicode="&#x22;" horiz-adv-x="665" d="M72 1467h184l-27 -381h-133zM402 1467h184l-27 -381h-133z" />
<glyph unicode="#" d="M37 426v128h188l99 393h-172v128h205l102 412h131l-103 -412h297l103 412h127l-103 -412h175v-128h-207l-99 -393h161v-128h-194l-124 -446h-127l124 446h-297l-124 -446h-130l123 446h-155zM356 554h297l99 393h-297z" />
<glyph unicode="$" d="M136 1110q0 139 87.5 242t234.5 130v160h139v-153q215 -9 291 -78l-59 -174q-40 29 -122 56t-152 27q-102 0 -160.5 -58t-58.5 -149q0 -56 21 -102t60 -78t152 -86l92 -43q156 -73 228 -178.5t72 -270.5q0 -136 -96.5 -238.5t-267.5 -131.5v-231h-139v221q-69 4 -174 35 t-144 57l72 184q52 -38 137.5 -67t152.5 -29q117 0 188 64t71 163q0 62 -20.5 110t-56 77.5t-161.5 88.5l-118 55q-150 70 -209.5 166t-59.5 231z" />
<glyph unicode="%" horiz-adv-x="1229" d="M61 1162q0 147 81 238t206 91q123 0 196.5 -90t73.5 -258q0 -156 -78 -247.5t-201 -91.5q-278 0 -278 358zM91 -20l883 1511h126l-882 -1511h-127zM187 1152q0 -117 39.5 -181.5t103.5 -64.5q162 0 162 245q0 238 -147 238q-73 0 -115.5 -64t-42.5 -173zM601 338 q0 147 81 238t206 91q123 0 196.5 -90t73.5 -258q0 -156 -78 -247.5t-201 -91.5q-278 0 -278 358zM727 328q0 -117 39.5 -181.5t103.5 -64.5q162 0 162 245q0 238 -147 238q-73 0 -115.5 -64t-42.5 -173z" />
<glyph unicode="&#x26;" horiz-adv-x="1446" d="M142 453q0 116 34.5 201t126.5 176q-141 140 -141 291q0 153 115.5 261.5t309.5 108.5q206 0 318 -91l-83 -154q-114 95 -204 95q-266 0 -266 -240q0 -130 116 -220h372v183l190 73v-259h249v-160h-249v-330q0 -138 37 -188t128 -50q54 0 127 37l27 -177 q-105 -30 -240 -30q-93 0 -180 71q-145 -71 -350 -71q-209 0 -323 123.5t-114 349.5zM342 462q0 -312 305 -312q136 0 204 49q-11 46 -11 115v404h-403q-95 -122 -95 -256z" />
<glyph unicode="'" horiz-adv-x="327" d="M72 1467h184l-27 -381h-133z" />
<glyph unicode="(" horiz-adv-x="752" d="M193 559q0 272 127 549.5t298 366.5v-83q-198 -286 -198 -835q0 -652 198 -880v-105q-202 141 -313.5 404.5t-111.5 582.5z" />
<glyph unicode=")" horiz-adv-x="752" d="M193 -323q198 228 198 880q0 549 -198 835v83q171 -89 298 -366.5t127 -549.5q0 -319 -111.5 -582.5t-313.5 -404.5v105z" />
<glyph unicode="*" horiz-adv-x="752" d="M48 1168l72 150l96 -37l125 -95l-63 205v79h176v-76l-60 -211l158 107l74 27l57 -161l-86 -29l-173 -3l158 -105l47 -62l-122 -104l-54 70l-82 159l-91 -162l-43 -64l-131 101l50 69l158 83l-176 27z" />
<glyph unicode="+" d="M122 565v141h348v343h141v-343h349v-141h-349v-345h-141v345h-348z" />
<glyph unicode="," horiz-adv-x="752" d="M173 -291q172 141 172 240q0 44 -30 88q-86 41 -86 118q0 53 41 87.5t103 34.5q55 0 98.5 -48t43.5 -112q0 -133 -55.5 -239.5t-235.5 -240.5z" />
<glyph unicode="-" horiz-adv-x="752" d="M159 506v175h428v-175h-428z" />
<glyph unicode="." horiz-adv-x="752" d="M204 131q0 62 44 106t106 44t106 -44t44 -106t-44 -106.5t-106 -44.5t-106 44.5t-44 106.5z" />
<glyph unicode="/" d="M189 0l531 1471h159l-529 -1471h-161z" />
<glyph unicode="0" d="M64 777q0 316 128 515t360 199q230 0 345.5 -166t115.5 -580q0 -356 -121 -560.5t-354 -204.5t-353.5 165t-120.5 632zM264 759q0 -609 260 -609q149 0 219 135t70 473q0 233 -27 342t-87 165t-152 56q-283 0 -283 -562z" />
<glyph unicode="1" d="M200 937v187q113 57 240.5 157t197.5 190h60v-1471h-200v1123z" />
<glyph unicode="2" d="M59 1277q34 98 133.5 156t240.5 58q211 0 330 -97.5t119 -275.5q0 -165 -158 -416l-329 -522h574v-180h-900v40l459 703q144 221 144 375q0 203 -229 203q-81 0 -152 -42.5t-103 -107.5z" />
<glyph unicode="3" d="M109 104l96 154q98 -108 248 -108q278 0 278 272q0 124 -81 201.5t-215 77.5h-16v162h9q254 0 254 224q0 234 -239 234q-130 0 -207 -87l-89 136q93 121 311 121q192 0 313 -102.5t121 -262.5q0 -122 -67.5 -216t-158.5 -126q126 -41 200.5 -139.5t74.5 -238.5 q0 -204 -129 -315t-362 -111q-98 0 -192 36.5t-149 87.5z" />
<glyph unicode="4" d="M25 399v114l787 958h70v-918h148v-154h-148v-399h-190v399h-667zM262 553h430v519z" />
<glyph unicode="5" d="M130 94l77 167q136 -111 262 -111q282 0 282 352q0 328 -278 328q-134 0 -241 -115l-68 47v709h729v-170h-539v-356q74 55 188 55q204 0 311.5 -122t107.5 -347q0 -551 -491 -551q-205 0 -340 114z" />
<glyph unicode="6" d="M84 614q0 266 188.5 544.5t399.5 332.5l97 -107q-88 -35 -254.5 -236.5t-184.5 -310.5q83 80 231 80q194 0 311 -124t117 -341q0 -215 -120.5 -346t-302.5 -131q-482 0 -482 639zM294 458q0 -313 257 -313q108 0 170.5 81.5t62.5 215.5q0 139 -66 222t-170 83 q-254 0 -254 -289z" />
<glyph unicode="7" d="M84 1281v190h950v-78l-129 -254q-65 -129 -136 -283t-139 -314t-119 -297t-83 -245h-222q74 235 249 621.5t320 659.5h-691z" />
<glyph unicode="8" d="M89 406q0 123 76 242t188 167q-93 50 -152 139t-59 184q0 163 110.5 258t285.5 95q189 0 293 -95t104 -259q0 -96 -63 -195.5t-146 -146.5q264 -148 264 -389q0 -203 -122 -314.5t-335 -111.5q-444 0 -444 426zM289 406q0 -109 68 -182.5t176 -73.5q112 0 184.5 72 t72.5 184q0 81 -50 152.5t-231 169.5q-220 -119 -220 -322zM342 1140q0 -134 256 -263q136 128 136 265q0 82 -54.5 130.5t-141.5 48.5q-196 0 -196 -181z" />
<glyph unicode="9" d="M74 1014q0 215 120.5 346t302.5 131q482 0 482 -639q0 -266 -188.5 -544.5t-399.5 -332.5l-97 107q87 35 254.5 236t184.5 310q-82 -79 -231 -79q-194 0 -311 124t-117 341zM279 1024q0 -139 66 -222t170 -83q254 0 254 289q0 313 -257 313q-108 0 -170.5 -81.5 t-62.5 -215.5z" />
<glyph unicode=":" horiz-adv-x="752" d="M204 131q0 62 44 106t106 44t106 -44t44 -106t-44 -106.5t-106 -44.5t-106 44.5t-44 106.5zM204 941q0 62 44 106t106 44t106 -44t44 -106t-44 -106.5t-106 -44.5t-106 44.5t-44 106.5z" />
<glyph unicode=";" horiz-adv-x="752" d="M173 -291q172 141 172 240q0 44 -30 88q-86 41 -86 118q0 53 41 87.5t103 34.5q55 0 98.5 -48t43.5 -112q0 -133 -55.5 -239.5t-235.5 -240.5zM204 941q0 62 44 106t106 44t106 -44t44 -106t-44 -106.5t-106 -44.5t-106 44.5t-44 106.5z" />
<glyph unicode="&#x3c;" d="M150 576v123l739 354v-161l-571 -255l571 -258v-161z" />
<glyph unicode="=" d="M122 395v141h838v-141h-838zM122 735v141h838v-141h-838z" />
<glyph unicode="&#x3e;" d="M150 218v161l571 258l-571 255v161l739 -354v-123z" />
<glyph unicode="?" horiz-adv-x="752" d="M40 1408q101 83 301 83q150 0 249.5 -85t99.5 -227q0 -72 -25.5 -138.5t-78.5 -122.5l-146 -156q-88 -108 -88 -242q0 -21 14 -91h-132q-34 95 -34 137q0 72 26.5 147t120 179.5t125.5 160.5t32 109q0 176 -213 176q-102 0 -178 -73zM174 131q0 62 44 106t106 44t106 -44 t44 -106t-44 -106.5t-106 -44.5t-106 44.5t-44 106.5z" />
<glyph unicode="@" horiz-adv-x="1578" d="M100 581q0 326 195 535t510 209q303 0 488 -181t185 -483q0 -170 -89.5 -288.5t-236.5 -118.5q-159 0 -230 70q-85 -78 -201 -78q-107 0 -173 58.5t-66 157.5q0 126 108 192t292 66q-15 147 -118 147q-105 0 -166 -56l-48 99q82 61 200 61q278 0 278 -319v-239 q72 -53 122 -53q186 0 186 304q0 231 -150 385t-381 154q-253 0 -408 -175t-155 -447q0 -267 153.5 -430t409.5 -163q231 0 371 128q46 -17 135 -58q-192 -192 -506 -192q-320 0 -512.5 197t-192.5 518zM636 467q0 -54 38 -89t95 -35q63 0 113 50v234h-51q-195 0 -195 -160z " />
<glyph unicode="A" horiz-adv-x="1208" d="M4 0l595 1485h53l552 -1485h-222l-101 309h-545l-108 -309h-224zM389 456h435l-208 645z" />
<glyph unicode="B" horiz-adv-x="1159" d="M150 0v1465q267 13 385 13q217 0 336 -93.5t119 -267.5q0 -102 -76 -186t-168 -105q174 -42 253.5 -139t79.5 -264q0 -193 -141.5 -308t-369.5 -115h-418zM350 170q103 -10 158 -10q188 0 274.5 70.5t86.5 224.5q0 143 -82.5 211t-275.5 68l-161 -5v-559zM350 884 q63 -6 156 -6q284 0 284 231q0 203 -261 203q-100 0 -179 -7v-421z" />
<glyph unicode="C" horiz-adv-x="1225" d="M80 728q0 328 176 545t455 217q239 0 374 -79l-67 -171q-96 70 -302 70q-193 0 -309.5 -166t-116.5 -428q0 -250 119.5 -405.5t308.5 -155.5q206 0 317 146l110 -153q-174 -173 -448 -173q-287 0 -452 207t-165 546z" />
<glyph unicode="D" horiz-adv-x="1256" d="M150 0v1465q282 10 361 10q307 0 486 -186.5t179 -496.5q0 -792 -731 -792h-295zM350 190q67 -10 166 -10q210 0 330 157.5t120 437.5q0 520 -467 520q-28 0 -149 -10v-1095z" />
<glyph unicode="E" horiz-adv-x="1097" d="M150 0v1465h875v-180h-675v-407h484v-170h-484v-528h664v-180h-864z" />
<glyph unicode="F" horiz-adv-x="1075" d="M150 0v1465h905v-180h-705v-407h515v-170h-515v-708h-200z" />
<glyph unicode="G" horiz-adv-x="1385" d="M80 727q0 340 192.5 551.5t519.5 211.5q229 0 373 -127l-83 -165q-151 112 -296 112q-230 0 -363 -162t-133 -429q0 -254 130.5 -409t355.5 -155q160 0 259 96v343h-203v170h403v-638q-80 -68 -223 -109.5t-278 -41.5q-303 0 -478.5 205.5t-175.5 546.5z" />
<glyph unicode="H" horiz-adv-x="1340" d="M150 0v1465h200v-587h640v587h200v-1465h-200v708h-640v-708h-200z" />
<glyph unicode="I" horiz-adv-x="570" d="M185 0v1465h200v-1465h-200z" />
<glyph unicode="J" horiz-adv-x="976" d="M49 293h175q24 -133 159 -133q134 0 188.5 57.5t54.5 321.5v926h200v-918q0 -300 -97 -433.5t-345 -133.5q-143 0 -234.5 85t-100.5 228z" />
<glyph unicode="K" horiz-adv-x="1179" d="M150 0v1465h200v-797l544 797h223l-438 -635l500 -830h-221l-413 674l-195 -277v-397h-200z" />
<glyph unicode="L" horiz-adv-x="1037" d="M150 0v1465h200v-1285h662v-180h-862z" />
<glyph unicode="M" horiz-adv-x="1453" d="M20 0l274 1465h91l349 -1069l322 1069h90l297 -1465h-190l-174 941l-320 -961h-50l-329 961l-170 -941h-190z" />
<glyph unicode="N" horiz-adv-x="1307" d="M150 0v1465h80l737 -1013v1013h190v-1485h-60l-757 1071v-1051h-190z" />
<glyph unicode="O" horiz-adv-x="1380" d="M80 745q0 318 159.5 532t430.5 214q305 0 467.5 -197t162.5 -549q0 -361 -163 -565.5t-467 -204.5q-277 0 -433.5 216t-156.5 554zM290 745q0 -252 99.5 -421t280.5 -169q205 0 312.5 155t107.5 435q0 566 -420 566q-186 0 -283 -152t-97 -414z" />
<glyph unicode="P" horiz-adv-x="1142" d="M150 0v1465q227 10 274 10q638 0 638 -427q0 -494 -564 -494q-34 0 -148 10v-564h-200zM350 744q127 -10 134 -10q372 0 372 293q0 268 -397 268q-40 0 -109 -10v-541z" />
<glyph unicode="Q" horiz-adv-x="1384" d="M80 745q0 317 159 531.5t431 214.5q305 0 467.5 -197t162.5 -549q0 -505 -302 -693q109 -160 366 -160h156l-30 -195q-524 0 -687 291q-31 -13 -133 -13q-277 0 -433.5 216t-156.5 554zM290 745q0 -252 99.5 -421t280.5 -169q206 0 313 156.5t107 433.5q0 566 -420 566 q-186 0 -283 -152t-97 -414z" />
<glyph unicode="R" horiz-adv-x="1192" d="M160 0v1465q11 0 155.5 7.5t210.5 7.5q528 0 528 -420q0 -138 -85 -248.5t-202 -137.5l425 -674h-229l-391 629q-67 0 -212 10v-639h-200zM360 809q72 -10 140 -10q180 0 262 58t82 207q0 123 -88 177t-278 54q-30 0 -118 -10v-476z" />
<glyph unicode="S" horiz-adv-x="985" d="M80 1110q0 164 116 272t298 108q243 0 338 -79l-59 -174q-40 29 -122 56t-152 27q-102 0 -160.5 -58t-58.5 -149q0 -56 21 -102t58.5 -77t153.5 -87l120 -57q150 -71 210.5 -169.5t60.5 -250.5q0 -165 -132.5 -280t-354.5 -115q-195 0 -333 92l73 184q56 -41 139.5 -68.5 t149.5 -27.5q117 0 188 64t71 163q0 74 -39.5 137.5t-198.5 138.5l-118 55q-150 70 -209.5 166t-59.5 231z" />
<glyph unicode="T" horiz-adv-x="1189" d="M18 1285v180h1153v-180h-487v-1285h-200v1285h-466z" />
<glyph unicode="U" horiz-adv-x="1328" d="M150 447v1018h200v-1003q0 -134 85 -220.5t225 -86.5q148 0 233 84t85 228v998h200v-1019q0 -222 -138.5 -346.5t-377.5 -124.5q-246 0 -379 122t-133 350z" />
<glyph unicode="V" horiz-adv-x="1203" d="M13 1465h222l377 -1079l363 1079h215l-530 -1485h-101z" />
<glyph unicode="W" horiz-adv-x="1745" d="M13 1465h208l294 -1023l322 1023h70l318 -1021l299 1021h208l-456 -1485h-63l-349 1010l-326 -1010h-63z" />
<glyph unicode="X" horiz-adv-x="1140" d="M13 0l432 760l-397 706l197 -1l313 -554l345 554h201l-455 -709l478 -756h-212l-364 588l-336 -588h-202z" />
<glyph unicode="Y" horiz-adv-x="1168" d="M13 1465h206l365 -640l365 640h206l-470 -809v-656h-200v656z" />
<glyph unicode="Z" horiz-adv-x="1127" d="M100 0v50l630 1235h-620v180h895v-50l-632 -1235h654v-180h-927z" />
<glyph unicode="[" horiz-adv-x="752" d="M202 -420v1930h463v-170h-263v-1590h263v-170h-463z" />
<glyph unicode="\" horiz-adv-x="728" d="M-3 1471h142l516 -1471h-143z" />
<glyph unicode="]" horiz-adv-x="752" d="M87 -250h263v1590h-263v170h463v-1930h-463v170z" />
<glyph unicode="^" d="M149 903l318 568h107l316 -564h-127l-244 448l-248 -452h-122z" />
<glyph unicode="_" d="M-8 -125h1085v-129h-1085v129z" />
<glyph unicode="`" d="M333 1618h197l169 -333h-140z" />
<glyph unicode="a" horiz-adv-x="1076" d="M80 299q0 163 142.5 275.5t363.5 112.5q60 0 136 -26q0 260 -232 260q-178 0 -274 -96l-80 159q54 44 149.5 75.5t182.5 31.5q233 0 338.5 -106t105.5 -337v-384q0 -141 84 -188v-95q-116 0 -173.5 33t-82.5 109q-114 -143 -349 -143q-126 0 -218.5 91.5t-92.5 227.5z M270 297q0 -167 197 -167q144 0 255 137v259q-90 20 -126 20q-144 0 -235 -74t-91 -175z" />
<glyph unicode="b" horiz-adv-x="1141" d="M135 -20v1530h190v-518q27 37 101.5 68t146.5 31q220 0 356.5 -152t136.5 -384q0 -268 -137 -421.5t-371 -153.5q-76 0 -149.5 28.5t-111.5 68.5l-67 -97h-95zM325 229q0 -16 71 -52.5t108 -36.5q194 0 278 93t84 312q0 182 -98 284t-264 102q-35 0 -97.5 -30t-81.5 -54 v-618z" />
<glyph unicode="c" horiz-adv-x="1014" d="M65 525q0 256 148.5 411t406.5 155q83 0 180 -35t143 -72l-94 -134q-29 29 -102.5 55t-144.5 26q-155 0 -246 -108.5t-91 -297.5q0 -188 93 -286.5t258 -98.5q128 0 258 99l75 -160q-153 -99 -379 -99q-219 0 -362 147t-143 398z" />
<glyph unicode="d" horiz-adv-x="1141" d="M75 509q0 241 144 411.5t343 170.5q166 0 252 -78v497h190v-1509h-190v79q-99 -99 -288 -99q-201 0 -326 144t-125 384zM275 527q0 -387 352 -387q45 0 108 28.5t79 60.5v594q-72 108 -197 108q-153 0 -247.5 -114t-94.5 -290z" />
<glyph unicode="e" horiz-adv-x="1117" d="M65 523q0 265 161 425q144 143 341 143q229 0 359 -129q126 -124 126 -329q0 -63 -15 -116h-772q0 -188 103 -289q91 -88 234 -88q163 0 272 95l80 -137q-44 -44 -135 -76q-114 -42 -254 -42q-202 0 -343 137q-157 151 -157 406zM270 655h593q0 115 -72 192 q-79 84 -215 84q-127 0 -213 -82q-82 -78 -93 -194z" />
<glyph unicode="f" horiz-adv-x="757" d="M65 911v160h156q0 205 101 322t267 117q83 0 178 -30l-53 -140q-58 20 -108 20q-87 0 -143.5 -66t-56.5 -167q0 -27 5 -56h218v-160h-218v-911h-190v911h-156z" />
<glyph unicode="g" horiz-adv-x="1028" d="M80 699q0 168 117 280t289 112q158 0 247 -65l95 114l124 -117l-114 -86q73 -95 73 -248q0 -162 -101 -272t-265 -126l-157 -16q-28 -3 -75 -21.5t-47 -48.5q0 -41 98 -41q43 0 134 15.5t135 15.5q158 0 246.5 -75.5t88.5 -209.5q0 -148 -132.5 -239t-335.5 -91 q-104 0 -219 37t-185 90l103 152q166 -111 306 -111q129 0 203.5 44.5t74.5 110.5q0 130 -188 130q-32 0 -116 -16t-131 -16q-228 0 -228 172q0 53 53.5 96t132.5 62q-226 106 -226 368zM275 698q0 -112 60.5 -185.5t163.5 -73.5q101 0 158 71.5t57 187.5q0 100 -61.5 170 t-153.5 70q-99 0 -161.5 -70t-62.5 -170z" />
<glyph unicode="h" horiz-adv-x="1119" d="M135 0v1510h190v-557q38 59 122.5 98.5t174.5 39.5q170 0 266.5 -112t96.5 -306v-673h-190v673q0 120 -59 189t-166 69q-69 0 -138.5 -40.5t-106.5 -94.5v-796h-190z" />
<glyph unicode="i" horiz-adv-x="584" d="M80 911v160h337v-1071h-190v911h-147zM214 1359q0 49 34 83t83 34t83.5 -34.5t34.5 -82.5q0 -49 -34.5 -83.5t-83.5 -34.5q-48 0 -82.5 34.5t-34.5 83.5z" />
<glyph unicode="j" horiz-adv-x="751" d="M18 -250q196 0 268.5 59.5t72.5 195.5v906h-213v160h403v-1062q0 -221 -130 -325t-401 -104v170zM311 1359q0 49 34 83t83 34t83.5 -34.5t34.5 -82.5q0 -49 -34.5 -83.5t-83.5 -34.5t-83 34.5t-34 83.5z" />
<glyph unicode="k" horiz-adv-x="1033" d="M135 0v1510h190v-937l410 498h222l-343 -407l419 -664h-206l-336 536l-166 -171v-365h-190z" />
<glyph unicode="l" horiz-adv-x="604" d="M150 303v1207h190v-1175q0 -86 49.5 -135.5t129.5 -49.5v-170q-369 0 -369 323z" />
<glyph unicode="m" horiz-adv-x="1700" d="M135 0v1071h124l63 -124q110 144 275 144q230 0 322 -143q32 61 119 102t179 41q166 0 257 -98.5t91 -276.5v-716h-190v678q0 253 -219 253q-69 0 -129 -42.5t-82 -96.5v-792h-190v761q0 79 -59.5 124.5t-157.5 45.5q-57 0 -121.5 -44t-91.5 -97v-790h-190z" />
<glyph unicode="n" horiz-adv-x="1119" d="M135 0v1071h130l60 -138q94 158 307 158q352 0 352 -428v-663h-190v623q0 171 -51.5 239.5t-172.5 68.5q-65 0 -136 -39t-109 -96v-796h-190z" />
<glyph unicode="o" horiz-adv-x="1099" d="M65 538q0 248 133.5 400.5t351.5 152.5q230 0 357 -146.5t127 -406.5q0 -259 -130 -408.5t-354 -149.5q-229 0 -357 151t-128 407zM265 538q0 -403 285 -403q133 0 208.5 108t75.5 295q0 398 -284 398q-130 0 -207.5 -106t-77.5 -292z" />
<glyph unicode="p" horiz-adv-x="1141" d="M135 -420v1491h190v-88q108 108 261 108q228 0 355 -142t127 -416q0 -244 -128 -398.5t-370 -154.5q-68 0 -145.5 24t-99.5 55v-479h-190zM325 216q18 -27 76 -51.5t113 -24.5q354 0 354 400q0 203 -84 297t-269 94q-40 0 -98 -28t-92 -63v-624z" />
<glyph unicode="q" horiz-adv-x="1141" d="M75 533q0 257 142.5 407.5t366.5 150.5q140 0 261 -101l51 81h115v-1491h-190v483q-83 -83 -278 -83q-219 0 -343.5 146.5t-124.5 406.5zM275 533q0 -186 90 -289.5t243 -103.5q137 0 213 70v639q-82 82 -205 82q-161 0 -251 -109t-90 -289z" />
<glyph unicode="r" horiz-adv-x="796" d="M150 0v1071h190v-171q104 191 309 191q51 0 147 -18l-79 -185q-62 43 -125 43q-101 0 -176.5 -93t-75.5 -224v-614h-190z" />
<glyph unicode="s" horiz-adv-x="829" d="M65 64l67 180q159 -104 256 -104q176 0 176 148q0 106 -170 182q-131 60 -176.5 91t-79 70.5t-50 84t-16.5 95.5q0 132 96 206t251 74q117 0 295 -74l-54 -176q-113 90 -227 90q-68 0 -114.5 -32t-46.5 -81q0 -103 117 -156l136 -62q125 -57 182 -130t57 -183 q0 -144 -101 -225.5t-280 -81.5q-169 0 -318 84z" />
<glyph unicode="t" horiz-adv-x="812" d="M79 921v150h124v224l190 73v-297h294v-150h-294v-532q0 -135 45.5 -192t146.5 -57q73 0 151 37l28 -167q-118 -30 -259 -30q-127 0 -214.5 94.5t-87.5 238.5v608h-124z" />
<glyph unicode="u" horiz-adv-x="1119" d="M125 368v703h190v-683q0 -248 215 -248q94 0 172 54t103 125v752h190v-1071h-190v148q-32 -63 -128.5 -115.5t-188.5 -52.5q-176 0 -269.5 101t-93.5 287z" />
<glyph unicode="v" horiz-adv-x="1003" d="M12 1074h208l283 -750l289 750h199l-470 -1094h-50z" />
<glyph unicode="w" horiz-adv-x="1524" d="M15 1074h203l229 -703l285 703h50l294 -703l246 703h187l-384 -1094h-50l-314 729l-313 -729h-50z" />
<glyph unicode="x" horiz-adv-x="1026" d="M12 0l389 548l-357 523h214l240 -368l269 368h210l-389 -523l426 -548h-227l-292 390l-261 -390h-222z" />
<glyph unicode="y" horiz-adv-x="1010" d="M12 1071h194l315 -828l283 828h194l-454 -1253q-37 -102 -155.5 -170t-264.5 -68v170q119 0 204 55.5t85 135.5q0 88 -31 173.5t-80 211.5z" />
<glyph unicode="z" horiz-adv-x="972" d="M40 0v50l609 851h-599v170h876v-54l-588 -847h594v-170h-892z" />
<glyph unicode="{" horiz-adv-x="752" d="M38 523v84q99 8 154 69.5t55 159.5q0 68 -37 193.5t-37 186.5q0 128 111.5 207t274.5 79h148v-133h-175q-164 0 -164 -184q0 -65 31.5 -167t31.5 -163q0 -158 -225 -288q105 -43 165 -112t60 -138q0 -65 -31.5 -180t-31.5 -189q0 -228 263 -228h76v-140h-139 q-171 0 -283 82t-112 216q0 70 37 214t37 219q0 198 -209 212z" />
<glyph unicode="|" d="M462 -276v1681h146v-1681h-146z" />
<glyph unicode="}" horiz-adv-x="752" d="M38 -280h76q263 0 263 228q0 74 -31.5 189t-31.5 180q0 69 60 138t165 112q-225 130 -225 288q0 61 31.5 163t31.5 167q0 184 -164 184h-175v133h148q163 0 274.5 -79t111.5 -207q0 -61 -37 -186.5t-37 -193.5q0 -98 55 -159.5t154 -69.5v-84q-209 -14 -209 -212 q0 -74 37 -216.5t37 -216.5q0 -134 -112 -216t-283 -82h-139v140z" />
<glyph unicode="~" d="M158 509q14 84 64.5 145.5t119.5 61.5q87 0 202.5 -38.5t163.5 -38.5q81 0 108 77h88q-53 -207 -192 -207q-79 0 -203 38.5t-152 38.5q-71 0 -108 -77h-91z" />
<glyph unicode="&#xa1;" horiz-adv-x="752" d="M234 940q0 62 44 106.5t106 44.5t106 -44.5t44 -106.5t-44 -106t-106 -44t-106 44t-44 106zM265 -10q0 196 77 699h71q78 -512 78 -700v-409h-226v410z" />
<glyph unicode="&#xa2;" d="M193 527q0 202 115 325.5t316 127.5l70 237h102l-71 -248q109 -26 170 -75l-78 -113q-38 38 -130 56l-169 -590q53 -20 116 -20q102 0 206 79l60 -136q-122 -79 -303 -79q-62 0 -119 15l-74 -258h-115l88 300q-184 110 -184 379zM353 527q0 -140 72 -218l158 532 q-101 -16 -165.5 -103t-64.5 -211z" />
<glyph unicode="&#xa3;" d="M132 0v139q90 30 90 129v439h-82v149h82v148q0 233 112 360t295 127q205 0 293 -121l-94 -133q-64 86 -222 86q-184 0 -184 -311v-156h199v-149h-199v-527h223q152 0 234 113l142 -111q-102 -182 -445 -182h-444z" />
<glyph unicode="&#xa4;" d="M56 334l143 140q-82 127 -82 252q0 124 82 251l-143 140l84 88l143 -143q122 83 253 83q132 0 253 -83l143 143l85 -88l-143 -140q82 -127 82 -251q0 -125 -82 -252l143 -140l-85 -88l-143 144q-121 -84 -253 -84q-131 0 -253 84l-143 -144zM236 726q0 -125 87 -212.5 t212 -87.5q124 0 211.5 88t87.5 212q0 125 -87 212t-212 87t-212 -87t-87 -212z" />
<glyph unicode="&#xa5;" horiz-adv-x="1168" d="M39 1465h206l332 -640l368 640h197l-464 -809v-50h254v-131h-254v-475h-200v475h-243v131h243v50z" />
<glyph unicode="&#xa6;" d="M472 -276v723h146v-723h-146zM472 694v723h146v-723h-146z" />
<glyph unicode="&#xa7;" horiz-adv-x="929" d="M85 1180q0 137 118 223.5t274 86.5q64 0 152.5 -29.5t136.5 -69.5l-62 -184q-108 103 -222 103q-187 0 -187 -127q0 -44 30.5 -83t187 -78t226 -109.5t69.5 -187.5q0 -98 -81 -182q123 -82 123 -221q0 -167 -108 -256t-292 -89q-222 0 -349 92l68 186q109 -100 270 -100 q201 0 201 147q0 135 -229 182q-136 28 -220 103t-84 153q0 136 97 197q-119 68 -119 243zM291 788q0 -31 29.5 -68.5t84.5 -57.5t191 -50q18 36 18 95q0 45 -24 77.5t-67.5 52t-69.5 22.5t-98 22q-64 -42 -64 -93z" />
<glyph unicode="&#xa8;" d="M189 1401q0 47 33 79.5t80 32.5t79.5 -32.5t32.5 -79.5t-32.5 -80t-79.5 -33t-80 33t-33 80zM662 1401q0 47 32.5 79.5t79.5 32.5t80 -32.5t33 -79.5t-33 -80t-80 -33t-79.5 33t-32.5 80z" />
<glyph unicode="&#xa9;" horiz-adv-x="1460" d="M105 661q0 279 198 476.5t477 197.5t476.5 -197.5t197.5 -476.5t-197.5 -477t-476.5 -198t-477 198t-198 477zM215 661q0 -234 165.5 -399.5t399.5 -165.5t399 165.5t165 399.5t-165 399t-399 165t-399.5 -165t-165.5 -399zM434 663q0 187 100 309.5t258 122.5 q137 0 212 -44l-38 -97q-54 39 -172 39q-110 0 -175.5 -94t-65.5 -242q0 -142 68 -230t175 -88q117 0 179 82l63 -86q-100 -99 -254 -99q-162 0 -256 116.5t-94 310.5z" />
<glyph unicode="&#xaa;" horiz-adv-x="752" d="M87 1002q0 115 93.5 182t242.5 67h39l35 -1q-3 127 -138 127q-109 0 -175 -62l-58 108q91 68 219 68q288 0 288 -267v-225q0 -79 53 -107v-67q-139 0 -173 77q-75 -78 -216 -78q-89 0 -149.5 50.5t-60.5 127.5zM221 1017q0 -38 35.5 -61t87.5 -23q92 0 154 69v155h-72 q-92 0 -148.5 -40t-56.5 -100z" />
<glyph unicode="&#xab;" d="M129 535v64l355 244v-125l-212 -157l212 -138v-125zM528 535v64l355 244v-125l-212 -157l212 -138v-125z" />
<glyph unicode="&#xac;" d="M122 745v141h838v-486h-141v345h-697z" />
<glyph unicode="&#xad;" horiz-adv-x="752" d="M159 506v175h428v-175h-428z" />
<glyph unicode="&#xae;" horiz-adv-x="1460" d="M105 661q0 279 198 476.5t477 197.5t476.5 -197.5t197.5 -476.5t-197.5 -477t-476.5 -198t-477 198t-198 477zM215 661q0 -234 165.5 -399.5t399.5 -165.5t399 165.5t165 399.5t-165 399t-399 165t-399.5 -165t-165.5 -399zM540 254v831h213q300 0 300 -230 q0 -160 -161 -226l227 -375h-129l-211 357h-120v-357h-119zM659 707q15 -2 78 -2q116 0 156 29.5t40 112.5q0 137 -180 137h-47l-47 -1v-276z" />
<glyph unicode="&#xaf;" d="M-8 1675h1085v-129h-1085v129z" />
<glyph unicode="&#xb0;" d="M296 1282q0 87 62 148t150 61t149.5 -61t61.5 -148t-62 -148.5t-149 -61.5q-88 0 -150 61.5t-62 148.5zM369 1282q0 -57 41 -98t98 -41t98 41t41 98t-41 98t-98 41t-98 -41t-41 -98z" />
<glyph unicode="&#xb1;" d="M122 -20v141h838v-141h-838zM122 565v141h348v343h141v-343h349v-141h-349v-345h-141v345h-348z" />
<glyph unicode="&#xb2;" horiz-adv-x="924" d="M162 1317q26 74 93 123.5t147 49.5q264 0 264 -224q0 -120 -93 -266l-183 -287h334v-118h-540v24l266 414q86 134 86 223q0 122 -128 122q-107 0 -169 -124z" />
<glyph unicode="&#xb3;" horiz-adv-x="929" d="M185 657l59 102q49 -54 148 -54q163 0 163 142q0 73 -46 118t-128 45h-10v102h6q148 0 148 139q0 119 -139 119q-85 0 -124 -44l-54 91q56 73 187 73q116 0 188 -62.5t72 -157.5q0 -73 -39.5 -128.5t-95.5 -76.5q165 -54 165 -227q0 -253 -295 -253q-129 0 -205 72z" />
<glyph unicode="&#xb4;" d="M378 1285l169 333h197l-226 -333h-140z" />
<glyph unicode="&#xb5;" horiz-adv-x="1119" d="M135 -420v1491h190v-623q0 -302 235 -302q84 0 148 43.5t87 105.5v776h190v-1071h-190v148q-34 -75 -112 -121.5t-175 -46.5q-108 0 -183 38v-438h-190z" />
<glyph unicode="&#xb6;" d="M118 1077q0 176 81 294t226 118h507v-1739h-154v1616h-158v-1616h-154v893q-348 0 -348 434z" />
<glyph unicode="&#xb7;" horiz-adv-x="752" d="M205 651q0 62 44 106t106 44t106 -44t44 -106t-44 -106.5t-106 -44.5t-106 44.5t-44 106.5z" />
<glyph unicode="&#xb8;" d="M331 -356q78 0 130 27t52 75q0 74 -90 74v119q99 0 154 -56t55 -137q0 -94 -73 -147.5t-204 -53.5z" />
<glyph unicode="&#xb9;" horiz-adv-x="924" d="M251 1157v113q197 99 282 208h36v-883h-130v674z" />
<glyph unicode="&#xba;" horiz-adv-x="752" d="M66 1159q0 148 86 240t227 92q149 0 230.5 -89t81.5 -243q0 -153 -82.5 -244t-229.5 -91t-230 90.5t-83 244.5zM207 1159q0 -221 172 -221q171 0 171 221q0 218 -171 218q-172 0 -172 -218z" />
<glyph unicode="&#xbb;" d="M169 298v125l212 138l-212 157v125l355 -244v-64zM568 298v125l212 138l-212 157v125l355 -244v-64z" />
<glyph unicode="&#xbc;" horiz-adv-x="1668" d="M81 1157v113q197 99 282 208h36v-883h-140v664zM221 -35l974 1526h126l-972 -1526h-128zM866 210v68l492 605h42v-571h89v-102h-89v-210h-130v210h-404zM1018 312h252v311z" />
<glyph unicode="&#xbd;" horiz-adv-x="1668" d="M101 1157v113q197 99 282 208h36v-883h-130v674zM208 -35l974 1526h126l-972 -1526h-128zM1002 722q26 74 93 123.5t147 49.5q264 0 264 -224q0 -120 -93 -266l-183 -287h334v-118h-540v24l266 414q86 134 86 223q0 122 -128 122q-107 0 -169 -124z" />
<glyph unicode="&#xbe;" horiz-adv-x="1668" d="M125 657l59 102q49 -54 148 -54q163 0 163 142q0 73 -46 118t-128 45h-10v102h6q148 0 148 139q0 119 -139 119q-85 0 -124 -44l-54 91q56 73 187 73q116 0 188 -62.5t72 -157.5q0 -73 -39.5 -128.5t-95.5 -76.5q165 -54 165 -227q0 -253 -295 -253q-129 0 -205 72z M301 -35l974 1526h126l-972 -1526h-128zM896 210v68l492 605h42v-571h89v-102h-89v-210h-130v210h-404zM1048 312h252v311z" />
<glyph unicode="&#xbf;" horiz-adv-x="752" d="M40 -108q0 72 25.5 138.5t78.5 122.5l146 156q88 108 88 242q0 21 -14 91h132q34 -95 34 -137q0 -72 -26.5 -147t-120 -179.5t-125.5 -160.5t-32 -109q0 -176 213 -176q102 0 178 73l73 -143q-101 -83 -301 -83q-150 0 -249.5 85t-99.5 227zM256 940q0 62 44 106.5 t106 44.5t106 -44.5t44 -106.5t-44 -106t-106 -44t-106 44t-44 106z" />
<glyph unicode="&#xc0;" horiz-adv-x="1208" d="M4 0l595 1485h53l552 -1485h-222l-101 309h-545l-108 -309h-224zM389 456h435l-208 645zM352 1918h197l169 -333h-140z" />
<glyph unicode="&#xc1;" horiz-adv-x="1208" d="M4 0l595 1485h53l552 -1485h-222l-101 309h-545l-108 -309h-224zM389 456h435l-208 645zM493 1585l169 333h197l-226 -333h-140z" />
<glyph unicode="&#xc2;" horiz-adv-x="1208" d="M4 0l595 1485h53l552 -1485h-222l-101 309h-545l-108 -309h-224zM389 456h435l-208 645zM265 1585l298 338h107l305 -338h-197l-163 189l-178 -189h-172z" />
<glyph unicode="&#xc3;" horiz-adv-x="1208" d="M4 0l595 1485h53l552 -1485h-222l-101 309h-545l-108 -309h-224zM389 456h435l-208 645zM296 1585q14 84 64.5 145.5t119.5 61.5q82 0 151.5 -38.5t104.5 -38.5q81 0 108 77h88q-53 -207 -192 -207q-63 0 -138.5 38.5t-106.5 38.5q-71 0 -108 -77h-91z" />
<glyph unicode="&#xc4;" horiz-adv-x="1208" d="M4 0l595 1485h53l552 -1485h-222l-101 309h-545l-108 -309h-224zM389 456h435l-208 645zM273 1701q0 47 33 79.5t80 32.5t79.5 -32.5t32.5 -79.5t-32.5 -80t-79.5 -33t-80 33t-33 80zM746 1701q0 47 32.5 79.5t79.5 32.5t80 -32.5t33 -79.5t-33 -80t-80 -33t-79.5 33 t-32.5 80z" />
<glyph unicode="&#xc5;" horiz-adv-x="1208" d="M4 0l562 1404q-66 20 -108.5 75.5t-42.5 125.5q0 87 62 148t150 61t149.5 -61t61.5 -148q0 -72 -43.5 -128.5t-111.5 -74.5l521 -1402h-222l-101 309h-549l-104 -309h-224zM389 456h435l-208 645zM525 1605q0 -41 30 -70.5t72 -29.5t71.5 29.5t29.5 70.5t-29.5 70 t-71.5 29t-72 -29t-30 -70z" />
<glyph unicode="&#xc6;" horiz-adv-x="1775" d="M17 0l705 1465h981v-180h-675v-407h484v-170h-484v-528h664v-180h-864v307h-448l-139 -307h-224zM444 456h384v829z" />
<glyph unicode="&#xc7;" horiz-adv-x="1225" d="M80 728q0 328 176 545t455 217q239 0 374 -79l-67 -171q-96 70 -302 70q-193 0 -309.5 -166t-116.5 -428q0 -250 119.5 -405.5t308.5 -155.5q206 0 317 146l110 -153q-174 -173 -448 -173q-287 0 -452 207t-165 546zM443 -356q78 0 130 27t52 75q0 74 -90 74v119 q99 0 154 -56t55 -137q0 -94 -73 -147.5t-204 -53.5z" />
<glyph unicode="&#xc8;" horiz-adv-x="1097" d="M150 0v1465h875v-180h-675v-407h484v-170h-484v-528h664v-180h-864zM366 1918h197l169 -333h-140z" />
<glyph unicode="&#xc9;" horiz-adv-x="1097" d="M150 0v1465h875v-180h-675v-407h484v-170h-484v-528h664v-180h-864zM436 1585l169 333h197l-226 -333h-140z" />
<glyph unicode="&#xca;" horiz-adv-x="1097" d="M150 0v1465h875v-180h-675v-407h484v-170h-484v-528h664v-180h-864zM205 1585l298 338h107l305 -338h-197l-163 189l-178 -189h-172z" />
<glyph unicode="&#xcb;" horiz-adv-x="1097" d="M150 0v1465h875v-180h-675v-407h484v-170h-484v-528h664v-180h-864zM230 1701q0 47 33 79.5t80 32.5t79.5 -32.5t32.5 -79.5t-32.5 -80t-79.5 -33t-80 33t-33 80zM703 1701q0 47 32.5 79.5t79.5 32.5t80 -32.5t33 -79.5t-33 -80t-80 -33t-79.5 33t-32.5 80z" />
<glyph unicode="&#xcc;" horiz-adv-x="570" d="M185 0v1465h200v-1465h-200zM103 1918h197l169 -333h-140z" />
<glyph unicode="&#xcd;" horiz-adv-x="570" d="M185 0v1465h200v-1465h-200zM211 1585l169 333h197l-226 -333h-140z" />
<glyph unicode="&#xce;" horiz-adv-x="570" d="M185 0v1465h200v-1465h-200zM-80 1585l298 338h107l305 -338h-197l-163 189l-178 -189h-172z" />
<glyph unicode="&#xcf;" horiz-adv-x="570" d="M185 0v1465h200v-1465h-200zM-31 1701q0 47 33 79.5t80 32.5t79.5 -32.5t32.5 -79.5t-32.5 -80t-79.5 -33t-80 33t-33 80zM442 1701q0 47 32.5 79.5t79.5 32.5t80 -32.5t33 -79.5t-33 -80t-80 -33t-79.5 33t-32.5 80z" />
<glyph unicode="&#xd0;" horiz-adv-x="1256" d="M15 691v160h135v614q282 10 361 10q307 0 486 -186.5t179 -496.5q0 -792 -731 -792h-295v691h-135zM350 190q67 -10 166 -10q210 0 330 157.5t120 437.5q0 520 -467 520q-28 0 -149 -10v-434h149v-160h-149v-501z" />
<glyph unicode="&#xd1;" horiz-adv-x="1307" d="M150 0v1465h80l737 -1013v1013h190v-1485h-60l-757 1071v-1051h-190zM294 1585q14 84 64.5 145.5t119.5 61.5q82 0 151.5 -38.5t104.5 -38.5q81 0 108 77h88q-53 -207 -192 -207q-63 0 -138.5 38.5t-106.5 38.5q-71 0 -108 -77h-91z" />
<glyph unicode="&#xd2;" horiz-adv-x="1380" d="M80 745q0 318 159.5 532t430.5 214q305 0 467.5 -197t162.5 -549q0 -361 -163 -565.5t-467 -204.5q-277 0 -433.5 216t-156.5 554zM290 745q0 -252 99.5 -421t280.5 -169q205 0 312.5 155t107.5 435q0 566 -420 566q-186 0 -283 -152t-97 -414zM492 1918h197l169 -333 h-140z" />
<glyph unicode="&#xd3;" horiz-adv-x="1380" d="M80 745q0 318 159.5 532t430.5 214q305 0 467.5 -197t162.5 -549q0 -361 -163 -565.5t-467 -204.5q-277 0 -433.5 216t-156.5 554zM290 745q0 -252 99.5 -421t280.5 -169q205 0 312.5 155t107.5 435q0 566 -420 566q-186 0 -283 -152t-97 -414zM523 1585l169 333h197 l-226 -333h-140z" />
<glyph unicode="&#xd4;" horiz-adv-x="1380" d="M80 745q0 318 159.5 532t430.5 214q305 0 467.5 -197t162.5 -549q0 -361 -163 -565.5t-467 -204.5q-277 0 -433.5 216t-156.5 554zM290 745q0 -252 99.5 -421t280.5 -169q205 0 312.5 155t107.5 435q0 566 -420 566q-186 0 -283 -152t-97 -414zM315 1585l298 338h107 l305 -338h-197l-163 189l-178 -189h-172z" />
<glyph unicode="&#xd5;" horiz-adv-x="1380" d="M80 745q0 318 159.5 532t430.5 214q305 0 467.5 -197t162.5 -549q0 -361 -163 -565.5t-467 -204.5q-277 0 -433.5 216t-156.5 554zM290 745q0 -252 99.5 -421t280.5 -169q205 0 312.5 155t107.5 435q0 566 -420 566q-186 0 -283 -152t-97 -414zM364 1585 q14 84 64.5 145.5t119.5 61.5q82 0 151.5 -38.5t104.5 -38.5q81 0 108 77h88q-53 -207 -192 -207q-63 0 -138.5 38.5t-106.5 38.5q-71 0 -108 -77h-91z" />
<glyph unicode="&#xd6;" horiz-adv-x="1380" d="M80 745q0 318 159.5 532t430.5 214q305 0 467.5 -197t162.5 -549q0 -361 -163 -565.5t-467 -204.5q-277 0 -433.5 216t-156.5 554zM290 745q0 -252 99.5 -421t280.5 -169q205 0 312.5 155t107.5 435q0 566 -420 566q-186 0 -283 -152t-97 -414zM337 1701q0 47 33 79.5 t80 32.5t79.5 -32.5t32.5 -79.5t-32.5 -80t-79.5 -33t-80 33t-33 80zM810 1701q0 47 32.5 79.5t79.5 32.5t80 -32.5t33 -79.5t-33 -80t-80 -33t-79.5 33t-32.5 80z" />
<glyph unicode="&#xd7;" d="M123 949l100 100l321 -321l317 317l100 -99l-317 -317l314 -315l-100 -100l-314 315l-317 -317l-100 99l317 317z" />
<glyph unicode="&#xd8;" horiz-adv-x="1345" d="M67 -25l160 211q-160 214 -160 559q0 318 159.5 532t430.5 214q214 0 361 -100l67 100h202l-144 -220q144 -194 144 -526q0 -361 -163 -565.5t-467 -204.5q-176 0 -307 91l-67 -91h-216zM277 745q0 -217 77 -378l559 862q-99 82 -256 82q-186 0 -283 -152t-97 -414z M457 227q84 -72 200 -72q206 0 313 156t107 434q0 205 -58 338z" />
<glyph unicode="&#xd9;" horiz-adv-x="1328" d="M150 447v1018h200v-1003q0 -134 85 -220.5t225 -86.5q148 0 233 84t85 228v998h200v-1019q0 -222 -138.5 -346.5t-377.5 -124.5q-246 0 -379 122t-133 350zM433 1918h197l169 -333h-140z" />
<glyph unicode="&#xda;" horiz-adv-x="1328" d="M150 447v1018h200v-1003q0 -134 85 -220.5t225 -86.5q148 0 233 84t85 228v998h200v-1019q0 -222 -138.5 -346.5t-377.5 -124.5q-246 0 -379 122t-133 350zM488 1585l169 333h197l-226 -333h-140z" />
<glyph unicode="&#xdb;" horiz-adv-x="1328" d="M150 447v1018h200v-1003q0 -134 85 -220.5t225 -86.5q148 0 233 84t85 228v998h200v-1019q0 -222 -138.5 -346.5t-377.5 -124.5q-246 0 -379 122t-133 350zM279 1585l298 338h107l305 -338h-197l-163 189l-178 -189h-172z" />
<glyph unicode="&#xdc;" horiz-adv-x="1328" d="M150 447v1018h200v-1003q0 -134 85 -220.5t225 -86.5q148 0 233 84t85 228v998h200v-1019q0 -222 -138.5 -346.5t-377.5 -124.5q-246 0 -379 122t-133 350zM289 1701q0 47 33 79.5t80 32.5t79.5 -32.5t32.5 -79.5t-32.5 -80t-79.5 -33t-80 33t-33 80zM762 1701 q0 47 32.5 79.5t79.5 32.5t80 -32.5t33 -79.5t-33 -80t-80 -33t-79.5 33t-32.5 80z" />
<glyph unicode="&#xdd;" horiz-adv-x="1168" d="M13 1465h206l365 -640l365 640h206l-470 -809v-656h-200v656zM453 1585l169 333h197l-226 -333h-140z" />
<glyph unicode="&#xde;" horiz-adv-x="1138" d="M150 0v1465h201v-190h74q638 0 638 -447q0 -245 -148.5 -379.5t-415.5 -134.5h-148v-314h-201zM351 494h134q372 0 372 313q0 150 -92 219t-305 69h-109v-601z" />
<glyph unicode="&#xdf;" horiz-adv-x="1119" d="M135 0v1115q0 184 92 289.5t247 105.5q176 0 273 -75t97 -203t-95 -237q-33 -38 -33 -50q0 -21 13 -32t79 -45q231 -120 231 -422q0 -219 -97 -342.5t-279 -123.5q-76 0 -141 23l36 151l56 -9q18 -3 59.5 5.5t72.5 30.5t51.5 57.5t31 84t10.5 110.5q0 83 -29.5 145 t-57.5 85.5t-152 125.5q-84 68 -84 146q0 22 50.5 65t76.5 81.5t26 96.5q0 162 -169 162q-96 0 -135.5 -75t-39.5 -249v-1016h-190z" />
<glyph unicode="&#xe0;" horiz-adv-x="1076" d="M80 299q0 163 142.5 275.5t363.5 112.5q60 0 136 -26q0 260 -232 260q-178 0 -274 -96l-80 159q54 44 149.5 75.5t182.5 31.5q233 0 338.5 -106t105.5 -337v-384q0 -141 84 -188v-95q-116 0 -173.5 33t-82.5 109q-114 -143 -349 -143q-126 0 -218.5 91.5t-92.5 227.5z M270 297q0 -167 197 -167q144 0 255 137v259q-90 20 -126 20q-144 0 -235 -74t-91 -175zM279 1618h197l169 -333h-140z" />
<glyph unicode="&#xe1;" horiz-adv-x="1076" d="M80 299q0 163 142.5 275.5t363.5 112.5q60 0 136 -26q0 260 -232 260q-178 0 -274 -96l-80 159q54 44 149.5 75.5t182.5 31.5q233 0 338.5 -106t105.5 -337v-384q0 -141 84 -188v-95q-116 0 -173.5 33t-82.5 109q-114 -143 -349 -143q-126 0 -218.5 91.5t-92.5 227.5z M270 297q0 -167 197 -167q144 0 255 137v259q-90 20 -126 20q-144 0 -235 -74t-91 -175zM399 1285l169 333h197l-226 -333h-140z" />
<glyph unicode="&#xe2;" horiz-adv-x="1076" d="M80 299q0 163 142.5 275.5t363.5 112.5q60 0 136 -26q0 260 -232 260q-178 0 -274 -96l-80 159q54 44 149.5 75.5t182.5 31.5q233 0 338.5 -106t105.5 -337v-384q0 -141 84 -188v-95q-116 0 -173.5 33t-82.5 109q-114 -143 -349 -143q-126 0 -218.5 91.5t-92.5 227.5z M270 297q0 -167 197 -167q144 0 255 137v259q-90 20 -126 20q-144 0 -235 -74t-91 -175zM167 1285l298 338h107l305 -338h-197l-163 189l-178 -189h-172z" />
<glyph unicode="&#xe3;" horiz-adv-x="1076" d="M80 299q0 163 142.5 275.5t363.5 112.5q60 0 136 -26q0 260 -232 260q-178 0 -274 -96l-80 159q54 44 149.5 75.5t182.5 31.5q233 0 338.5 -106t105.5 -337v-384q0 -141 84 -188v-95q-116 0 -173.5 33t-82.5 109q-114 -143 -349 -143q-126 0 -218.5 91.5t-92.5 227.5z M270 297q0 -167 197 -167q144 0 255 137v259q-90 20 -126 20q-144 0 -235 -74t-91 -175zM197 1285q14 84 64.5 145.5t119.5 61.5q82 0 151.5 -38.5t104.5 -38.5q81 0 108 77h88q-53 -207 -192 -207q-63 0 -138.5 38.5t-106.5 38.5q-71 0 -108 -77h-91z" />
<glyph unicode="&#xe4;" horiz-adv-x="1076" d="M80 299q0 163 142.5 275.5t363.5 112.5q60 0 136 -26q0 260 -232 260q-178 0 -274 -96l-80 159q54 44 149.5 75.5t182.5 31.5q233 0 338.5 -106t105.5 -337v-384q0 -141 84 -188v-95q-116 0 -173.5 33t-82.5 109q-114 -143 -349 -143q-126 0 -218.5 91.5t-92.5 227.5z M270 297q0 -167 197 -167q144 0 255 137v259q-90 20 -126 20q-144 0 -235 -74t-91 -175zM163 1401q0 47 33 79.5t80 32.5t79.5 -32.5t32.5 -79.5t-32.5 -80t-79.5 -33t-80 33t-33 80zM636 1401q0 47 32.5 79.5t79.5 32.5t80 -32.5t33 -79.5t-33 -80t-80 -33t-79.5 33 t-32.5 80z" />
<glyph unicode="&#xe5;" horiz-adv-x="1076" d="M80 299q0 163 142.5 275.5t363.5 112.5q60 0 136 -26q0 260 -232 260q-178 0 -274 -96l-80 159q54 44 149.5 75.5t182.5 31.5q233 0 338.5 -106t105.5 -337v-384q0 -141 84 -188v-95q-116 0 -173.5 33t-82.5 109q-114 -143 -349 -143q-126 0 -218.5 91.5t-92.5 227.5z M270 297q0 -167 197 -167q144 0 255 137v259q-90 20 -126 20q-144 0 -235 -74t-91 -175zM302 1495q0 87 62 148t150 61t149.5 -61t61.5 -148t-62 -148.5t-149 -61.5q-88 0 -150 61.5t-62 148.5zM412 1495q0 -41 30 -70.5t72 -29.5t71.5 29.5t29.5 70.5t-29.5 70t-71.5 29 t-72 -29t-30 -70z" />
<glyph unicode="&#xe6;" horiz-adv-x="1788" d="M80 281q0 182 141.5 292t370.5 110q56 0 132 -22q0 260 -233 260q-178 0 -274 -96l-80 159q54 44 149.5 75.5t182.5 31.5q293 0 389 -173q148 173 368 173q222 0 353.5 -133t131.5 -345q0 -46 -15 -96h-762q0 -170 89 -273.5t238 -103.5q175 0 274 109l80 -152 q-78 -69 -169 -93t-222 -24q-170 0 -298 95q5 -50 11 -95h-161q-11 47 -35 143q-114 -143 -339 -143q-133 0 -227.5 87.5t-94.5 213.5zM270 297q0 -167 198 -167q145 0 256 137v259q-60 20 -127 20q-142 0 -234.5 -79.5t-92.5 -169.5zM934 655h598q0 123 -84.5 199.5 t-222.5 76.5q-123 0 -207 -90t-84 -186z" />
<glyph unicode="&#xe7;" horiz-adv-x="1014" d="M65 525q0 256 148.5 411t406.5 155q83 0 180 -35t143 -72l-94 -134q-29 29 -102.5 55t-144.5 26q-155 0 -246 -108.5t-91 -297.5q0 -188 93 -286.5t258 -98.5q128 0 258 99l75 -160q-153 -99 -379 -99q-219 0 -362 147t-143 398zM383 -356q78 0 130 27t52 75q0 74 -90 74 v119q99 0 154 -56t55 -137q0 -94 -73 -147.5t-204 -53.5z" />
<glyph unicode="&#xe8;" horiz-adv-x="1117" d="M65 523q0 265 161 425q144 143 341 143q229 0 359 -129q126 -124 126 -329q0 -63 -15 -116h-772q0 -188 103 -289q91 -88 234 -88q163 0 272 95l80 -137q-44 -44 -135 -76q-114 -42 -254 -42q-202 0 -343 137q-157 151 -157 406zM270 655h593q0 115 -72 192 q-79 84 -215 84q-127 0 -213 -82q-82 -78 -93 -194zM361 1618h197l169 -333h-140z" />
<glyph unicode="&#xe9;" horiz-adv-x="1117" d="M65 523q0 265 161 425q144 143 341 143q229 0 359 -129q126 -124 126 -329q0 -63 -15 -116h-772q0 -188 103 -289q91 -88 234 -88q163 0 272 95l80 -137q-44 -44 -135 -76q-114 -42 -254 -42q-202 0 -343 137q-157 151 -157 406zM270 655h593q0 115 -72 192 q-79 84 -215 84q-127 0 -213 -82q-82 -78 -93 -194zM458 1285l169 333h197l-226 -333h-140z" />
<glyph unicode="&#xea;" horiz-adv-x="1117" d="M65 523q0 265 161 425q144 143 341 143q229 0 359 -129q126 -124 126 -329q0 -63 -15 -116h-772q0 -188 103 -289q91 -88 234 -88q163 0 272 95l80 -137q-44 -44 -135 -76q-114 -42 -254 -42q-202 0 -343 137q-157 151 -157 406zM270 655h593q0 115 -72 192 q-79 84 -215 84q-127 0 -213 -82q-82 -78 -93 -194zM216 1285l298 338h107l305 -338h-197l-163 189l-178 -189h-172z" />
<glyph unicode="&#xeb;" horiz-adv-x="1117" d="M65 523q0 265 161 425q144 143 341 143q229 0 359 -129q126 -124 126 -329q0 -63 -15 -116h-772q0 -188 103 -289q91 -88 234 -88q163 0 272 95l80 -137q-44 -44 -135 -76q-114 -42 -254 -42q-202 0 -343 137q-157 151 -157 406zM270 655h593q0 115 -72 192 q-79 84 -215 84q-127 0 -213 -82q-82 -78 -93 -194zM214 1401q0 47 33 79.5t80 32.5t79.5 -32.5t32.5 -79.5t-32.5 -80t-79.5 -33t-80 33t-33 80zM687 1401q0 47 32.5 79.5t79.5 32.5t80 -32.5t33 -79.5t-33 -80t-80 -33t-79.5 33t-32.5 80z" />
<glyph unicode="&#xec;" horiz-adv-x="584" d="M80 911v160h340v-1071h-193v911h-147zM62 1618h197l169 -333h-140z" />
<glyph unicode="&#xed;" horiz-adv-x="584" d="M80 911v160h340v-1071h-193v911h-147zM174 1285l169 333h197l-226 -333h-140z" />
<glyph unicode="&#xee;" horiz-adv-x="584" d="M80 911v160h340v-1071h-193v911h-147zM-70 1285l298 338h107l305 -338h-197l-163 189l-178 -189h-172z" />
<glyph unicode="&#xef;" horiz-adv-x="584" d="M80 911v160h340v-1071h-193v911h-147zM-60 1401q0 47 33 79.5t80 32.5t79.5 -32.5t32.5 -79.5t-32.5 -80t-79.5 -33t-80 33t-33 80zM413 1401q0 47 32.5 79.5t79.5 32.5t80 -32.5t33 -79.5t-33 -80t-80 -33t-79.5 33t-32.5 80z" />
<glyph unicode="&#xf0;" horiz-adv-x="1125" d="M61 538q0 243 131.5 398t353.5 155q77 0 146 -18q-64 112 -115 183l-174 -94l-46 90l159 84q-91 110 -176 174h251q29 -30 80 -92l173 92l46 -85l-159 -86q184 -283 241.5 -456.5t57.5 -344.5q0 -254 -128 -406t-356 -152q-229 0 -357 152t-128 406zM251 538 q0 -388 295 -388q141 0 217.5 106t76.5 282q0 383 -294 383q-141 0 -218 -105t-77 -278z" />
<glyph unicode="&#xf1;" horiz-adv-x="1119" d="M135 0v1071h130l60 -138q94 158 307 158q352 0 352 -428v-663h-190v623q0 171 -51.5 239.5t-172.5 68.5q-65 0 -136 -39t-109 -96v-796h-190zM214 1285q14 84 64.5 145.5t119.5 61.5q82 0 151.5 -38.5t104.5 -38.5q81 0 108 77h88q-53 -207 -192 -207q-63 0 -138.5 38.5 t-106.5 38.5q-71 0 -108 -77h-91z" />
<glyph unicode="&#xf2;" horiz-adv-x="1099" d="M65 538q0 248 133.5 400.5t351.5 152.5q230 0 357 -146.5t127 -406.5q0 -259 -130 -408.5t-354 -149.5q-229 0 -357 151t-128 407zM265 538q0 -403 285 -403q133 0 208.5 108t75.5 295q0 398 -284 398q-130 0 -207.5 -106t-77.5 -292zM339 1618h197l169 -333h-140z" />
<glyph unicode="&#xf3;" horiz-adv-x="1099" d="M65 538q0 248 133.5 400.5t351.5 152.5q230 0 357 -146.5t127 -406.5q0 -259 -130 -408.5t-354 -149.5q-229 0 -357 151t-128 407zM265 538q0 -403 285 -403q133 0 208.5 108t75.5 295q0 398 -284 398q-130 0 -207.5 -106t-77.5 -292zM408 1285l169 333h197l-226 -333 h-140z" />
<glyph unicode="&#xf4;" horiz-adv-x="1099" d="M65 538q0 248 133.5 400.5t351.5 152.5q230 0 357 -146.5t127 -406.5q0 -259 -130 -408.5t-354 -149.5q-229 0 -357 151t-128 407zM265 538q0 -403 285 -403q133 0 208.5 108t75.5 295q0 398 -284 398q-130 0 -207.5 -106t-77.5 -292zM196 1285l298 338h107l305 -338 h-197l-163 189l-178 -189h-172z" />
<glyph unicode="&#xf5;" horiz-adv-x="1099" d="M65 538q0 248 133.5 400.5t351.5 152.5q230 0 357 -146.5t127 -406.5q0 -259 -130 -408.5t-354 -149.5q-229 0 -357 151t-128 407zM265 538q0 -403 285 -403q133 0 208.5 108t75.5 295q0 398 -284 398q-130 0 -207.5 -106t-77.5 -292zM244 1285q14 84 64.5 145.5 t119.5 61.5q82 0 151.5 -38.5t104.5 -38.5q81 0 108 77h88q-53 -207 -192 -207q-63 0 -138.5 38.5t-106.5 38.5q-71 0 -108 -77h-91z" />
<glyph unicode="&#xf6;" horiz-adv-x="1099" d="M65 538q0 248 133.5 400.5t351.5 152.5q230 0 357 -146.5t127 -406.5q0 -259 -130 -408.5t-354 -149.5q-229 0 -357 151t-128 407zM265 538q0 -403 285 -403q133 0 208.5 108t75.5 295q0 398 -284 398q-130 0 -207.5 -106t-77.5 -292zM215 1401q0 47 33 79.5t80 32.5 t79.5 -32.5t32.5 -79.5t-32.5 -80t-79.5 -33t-80 33t-33 80zM688 1401q0 47 32.5 79.5t79.5 32.5t80 -32.5t33 -79.5t-33 -80t-80 -33t-79.5 33t-32.5 80z" />
<glyph unicode="&#xf7;" d="M122 564v141h838v-141h-838zM394 250q0 62 44 106t106 44t106 -44t44 -106t-44 -106.5t-106 -44.5t-106 44.5t-44 106.5zM394 1000q0 62 44 106t106 44t106 -44t44 -106t-44 -106.5t-106 -44.5t-106 44.5t-44 106.5z" />
<glyph unicode="&#xf8;" horiz-adv-x="1117" d="M61 -20l119 162q-119 149 -119 396q0 248 133.5 400.5t351.5 152.5q165 0 278 -76l56 76h150l-117 -159q117 -146 117 -394q0 -259 -130 -408.5t-354 -149.5q-162 0 -276 78l-58 -78h-151zM251 538q0 -148 44 -241l424 575q-75 54 -173 54q-134 0 -214.5 -103t-80.5 -285 zM373 199q69 -64 173 -64q134 0 214 108.5t80 294.5q0 146 -43 237z" />
<glyph unicode="&#xf9;" horiz-adv-x="1119" d="M125 368v703h190v-683q0 -248 215 -248q94 0 172 54t103 125v752h190v-1071h-190v148q-32 -63 -128.5 -115.5t-188.5 -52.5q-176 0 -269.5 101t-93.5 287zM321 1618h197l169 -333h-140z" />
<glyph unicode="&#xfa;" horiz-adv-x="1119" d="M125 368v703h190v-683q0 -248 215 -248q94 0 172 54t103 125v752h190v-1071h-190v148q-32 -63 -128.5 -115.5t-188.5 -52.5q-176 0 -269.5 101t-93.5 287zM374 1285l169 333h197l-226 -333h-140z" />
<glyph unicode="&#xfb;" horiz-adv-x="1119" d="M125 368v703h190v-683q0 -248 215 -248q94 0 172 54t103 125v752h190v-1071h-190v148q-32 -63 -128.5 -115.5t-188.5 -52.5q-176 0 -269.5 101t-93.5 287zM166 1285l298 338h107l305 -338h-197l-163 189l-178 -189h-172z" />
<glyph unicode="&#xfc;" horiz-adv-x="1119" d="M125 368v703h190v-683q0 -248 215 -248q94 0 172 54t103 125v752h190v-1071h-190v148q-32 -63 -128.5 -115.5t-188.5 -52.5q-176 0 -269.5 101t-93.5 287zM181 1401q0 47 33 79.5t80 32.5t79.5 -32.5t32.5 -79.5t-32.5 -80t-79.5 -33t-80 33t-33 80zM654 1401 q0 47 32.5 79.5t79.5 32.5t80 -32.5t33 -79.5t-33 -80t-80 -33t-79.5 33t-32.5 80z" />
<glyph unicode="&#xfd;" horiz-adv-x="1010" d="M12 1071h194l315 -828l283 828h194l-454 -1253q-37 -102 -155.5 -170t-264.5 -68v170q119 0 204 55.5t85 135.5q0 88 -31 173.5t-80 211.5zM389 1285l169 333h197l-226 -333h-140z" />
<glyph unicode="&#xfe;" horiz-adv-x="1133" d="M135 -420v1930h190v-527q108 108 261 108q228 0 355 -142t127 -416q0 -244 -128 -398.5t-370 -154.5q-166 0 -245 79v-479h-190zM325 226q89 -76 189 -76q186 0 270 93.5t84 296.5q0 200 -83 290.5t-270 90.5q-40 0 -98 -28t-92 -63v-604z" />
<glyph unicode="&#xff;" horiz-adv-x="1010" d="M12 1071h194l315 -828l283 828h194l-454 -1253q-37 -102 -155.5 -170t-264.5 -68v170q119 0 204 55.5t85 135.5q0 88 -31 173.5t-80 211.5zM151 1401q0 47 33 79.5t80 32.5t79.5 -32.5t32.5 -79.5t-32.5 -80t-79.5 -33t-80 33t-33 80zM624 1401q0 47 32.5 79.5t79.5 32.5 t80 -32.5t33 -79.5t-33 -80t-80 -33t-79.5 33t-32.5 80z" />
<glyph unicode="&#x131;" horiz-adv-x="584" d="M80 911v160h340v-1071h-193v911h-147z" />
<glyph unicode="&#x152;" horiz-adv-x="2034" d="M67 745q0 318 159.5 532t430.5 214q270 0 430 -156v130h875v-180h-675v-407h484v-170h-484v-528h664v-180h-864v138q-161 -163 -430 -163q-277 0 -433.5 216t-156.5 554zM277 745q0 -252 99.5 -421t280.5 -169q205 0 312.5 155t107.5 435q0 566 -420 566 q-186 0 -283 -152t-97 -414z" />
<glyph unicode="&#x153;" horiz-adv-x="1893" d="M61 538q0 248 133.5 400.5t351.5 152.5q271 0 396 -199q149 199 389 199q222 0 353.5 -133t131.5 -345q0 -46 -15 -96h-762q0 -171 89 -274t238 -103q168 0 274 101l80 -152q-124 -109 -391 -109q-254 0 -396 193q-129 -193 -387 -193q-229 0 -357 151t-128 407zM261 538 q0 -388 285 -388q138 0 211 104.5t73 283.5q0 383 -284 383q-134 0 -209.5 -100t-75.5 -283zM1039 655h598q0 123 -84.5 199.5t-222.5 76.5q-104 0 -197.5 -86t-93.5 -190z" />
<glyph unicode="&#x178;" horiz-adv-x="1168" d="M13 1465h206l365 -640l365 640h206l-470 -809v-656h-200v656zM241 1701q0 47 33 79.5t80 32.5t79.5 -32.5t32.5 -79.5t-32.5 -80t-79.5 -33t-80 33t-33 80zM714 1701q0 47 32.5 79.5t79.5 32.5t80 -32.5t33 -79.5t-33 -80t-80 -33t-79.5 33t-32.5 80z" />
<glyph unicode="&#x2c6;" d="M169 1285l298 338h107l305 -338h-197l-163 189l-178 -189h-172z" />
<glyph unicode="&#x2da;" d="M296 1495q0 87 62 148t150 61t149.5 -61t61.5 -148t-62 -148.5t-149 -61.5q-88 0 -150 61.5t-62 148.5zM406 1495q0 -41 30 -70.5t72 -29.5t71.5 29.5t29.5 70.5t-29.5 70t-71.5 29t-72 -29t-30 -70z" />
<glyph unicode="&#x2dc;" d="M204 1285q14 84 64.5 145.5t119.5 61.5q82 0 151.5 -38.5t104.5 -38.5q81 0 108 77h88q-53 -207 -192 -207q-63 0 -138.5 38.5t-106.5 38.5q-71 0 -108 -77h-91z" />
<glyph unicode="&#x2000;" horiz-adv-x="961" />
<glyph unicode="&#x2001;" horiz-adv-x="1923" />
<glyph unicode="&#x2002;" horiz-adv-x="961" />
<glyph unicode="&#x2003;" horiz-adv-x="1923" />
<glyph unicode="&#x2004;" horiz-adv-x="641" />
<glyph unicode="&#x2005;" horiz-adv-x="480" />
<glyph unicode="&#x2006;" horiz-adv-x="320" />
<glyph unicode="&#x2007;" horiz-adv-x="320" />
<glyph unicode="&#x2008;" horiz-adv-x="240" />
<glyph unicode="&#x2009;" horiz-adv-x="384" />
<glyph unicode="&#x200a;" horiz-adv-x="106" />
<glyph unicode="&#x2010;" horiz-adv-x="752" d="M159 506v175h428v-175h-428z" />
<glyph unicode="&#x2011;" horiz-adv-x="752" d="M159 506v175h428v-175h-428z" />
<glyph unicode="&#x2012;" horiz-adv-x="752" d="M159 506v175h428v-175h-428z" />
<glyph unicode="&#x2013;" horiz-adv-x="752" d="M93 532v96h521v-96h-521z" />
<glyph unicode="&#x2014;" horiz-adv-x="1504" d="M93 532v96h1309v-96h-1309z" />
<glyph unicode="&#x2018;" horiz-adv-x="752" d="M234 1226q0 117 46.5 200.5t129.5 83.5q60 0 108.5 -39t48.5 -98q0 -44 -14.5 -73.5t-37 -42.5t-85.5 -48q-48 -33 -48 -103q0 -19 8 -45t59 -113l-94 -60q-121 160 -121 338z" />
<glyph unicode="&#x2019;" horiz-adv-x="752" d="M199 990l75 64q30 25 42.5 54t12.5 61q0 47 -49 95t-49 99q0 147 145 147q155 0 155 -177q0 -127 -70.5 -240.5t-194.5 -191.5z" />
<glyph unicode="&#x201a;" horiz-adv-x="752" d="M228 -291q172 141 172 240q0 44 -30 88q-86 41 -86 118q0 53 41 87.5t103 34.5q55 0 98.5 -48t43.5 -112q0 -133 -55.5 -239.5t-235.5 -240.5z" />
<glyph unicode="&#x201c;" d="M234 1226q0 117 46.5 200.5t129.5 83.5q60 0 108.5 -39t48.5 -98q0 -44 -14.5 -73.5t-37 -42.5t-85.5 -48q-48 -33 -48 -103q0 -19 8 -45t59 -113l-94 -60q-121 160 -121 338zM694 1226q0 117 46.5 200.5t129.5 83.5q60 0 108.5 -39t48.5 -98q0 -44 -14.5 -73.5 t-37 -42.5t-85.5 -48q-48 -33 -48 -103q0 -19 8 -45t59 -113l-94 -60q-121 160 -121 338z" />
<glyph unicode="&#x201d;" d="M199 990l75 64q30 25 42.5 54t12.5 61q0 47 -49 95t-49 99q0 147 145 147q155 0 155 -177q0 -127 -70.5 -240.5t-194.5 -191.5zM659 990l75 64q30 25 42.5 54t12.5 61q0 47 -49 95t-49 99q0 147 145 147q155 0 155 -177q0 -127 -70.5 -240.5t-194.5 -191.5z" />
<glyph unicode="&#x201e;" d="M173 -291q172 141 172 240q0 44 -30 88q-86 41 -86 118q0 53 41 87.5t103 34.5q55 0 98.5 -48t43.5 -112q0 -133 -55.5 -239.5t-235.5 -240.5zM603 -291q172 141 172 240q0 44 -30 88q-86 41 -86 118q0 53 41 87.5t103 34.5q55 0 98.5 -48t43.5 -112q0 -133 -55.5 -239.5 t-235.5 -240.5z" />
<glyph unicode="&#x2022;" d="M253 574q0 120 84.5 204.5t204.5 84.5t204.5 -84.5t84.5 -204.5t-84.5 -204.5t-204.5 -84.5t-204.5 84.5t-84.5 204.5z" />
<glyph unicode="&#x2026;" horiz-adv-x="1504" d="M100 131q0 62 44 106t106 44t106 -44t44 -106t-44 -106.5t-106 -44.5t-106 44.5t-44 106.5zM602 131q0 62 44 106t106 44t106 -44t44 -106t-44 -106.5t-106 -44.5t-106 44.5t-44 106.5zM1104 131q0 62 44 106t106 44t106 -44t44 -106t-44 -106.5t-106 -44.5t-106 44.5 t-44 106.5z" />
<glyph unicode="&#x202f;" horiz-adv-x="384" />
<glyph unicode="&#x2039;" horiz-adv-x="752" d="M171 535v64l355 244v-125l-212 -157l212 -138v-125z" />
<glyph unicode="&#x203a;" horiz-adv-x="752" d="M211 298v125l212 138l-212 157v125l355 -244v-64z" />
<glyph unicode="&#x205f;" horiz-adv-x="480" />
<glyph unicode="&#x20ac;" d="M31 515v141h98q-5 68 -1 131h-97v141h115q37 233 175 389q154 173 378 173q250 0 353 -93l-89 -164q-101 77 -259 77q-152 0 -250 -118q-84 -103 -108 -264h459l-58 -141h-414q-3 -37 -3 -71q0 -28 2 -60h347l-49 -141h-283q14 -133 109 -242q103 -118 231 -118 q89 0 187 40t157 103v-217q-140 -106 -365 -106q-216 0 -359 167q-124 145 -160 373h-116z" />
<glyph unicode="&#x2122;" horiz-adv-x="1300" d="M191 1381v90h527v-90h-219v-643h-100v643h-208zM638 739l112 732h75l169 -567l167 567h75l113 -732h-95l-83 498l-147 -503h-59l-155 510l-77 -505h-95z" />
<glyph unicode="&#x2219;" horiz-adv-x="752" d="M205 651q0 62 44 106t106 44t106 -44t44 -106t-44 -106.5t-106 -44.5t-106 44.5t-44 106.5z" />
<glyph unicode="&#xe000;" horiz-adv-x="1070" d="M0 1070h1070v-1070h-1070v1070z" />
<glyph unicode="&#xf001;" horiz-adv-x="1187" d="M53 911v160h156q0 205 101 322t267 117q83 0 178 -30l-53 -140q-58 20 -108 20q-87 0 -143.5 -66t-56.5 -167q0 -27 5 -56h637v-1071h-193v911h-444v-911h-190v911h-156zM800 1359q0 49 34 83t83 34t83.5 -34.5t34.5 -82.5q0 -49 -34.5 -83.5t-83.5 -34.5 q-48 0 -82.5 34.5t-34.5 83.5z" />
<glyph unicode="&#xfb01;" horiz-adv-x="1187" d="M53 911v160h156q0 205 101 322t267 117q83 0 178 -30l-53 -140q-58 20 -108 20q-87 0 -143.5 -66t-56.5 -167q0 -27 5 -56h637v-1071h-193v911h-444v-911h-190v911h-156zM800 1359q0 49 34 83t83 34t83.5 -34.5t34.5 -82.5q0 -49 -34.5 -83.5t-83.5 -34.5 q-48 0 -82.5 34.5t-34.5 83.5z" />
<glyph unicode="&#xf002;" horiz-adv-x="1230" d="M65 911v160h156q0 205 101 322t267 117q147 0 227 -47v27h190v-1155q0 -185 139 -185v-170q-176 0 -252.5 73t-76.5 250v982q-26 30 -87 52.5t-123 22.5q-87 0 -143.5 -66t-56.5 -167q0 -27 5 -56h188v-160h-188v-911h-190v911h-156z" />
<glyph unicode="&#xfb02;" horiz-adv-x="1230" d="M65 911v160h156q0 205 101 322t267 117q147 0 227 -47v27h190v-1155q0 -185 139 -185v-170q-176 0 -252.5 73t-76.5 250v982q-26 30 -87 52.5t-123 22.5q-87 0 -143.5 -66t-56.5 -167q0 -27 5 -56h188v-160h-188v-911h-190v911h-156z" />
<glyph unicode="&#xfb03;" horiz-adv-x="2098" d="M1594 911v160h337v-1071h-190v911h-147zM1728 1359q0 49 34 83t83 34t83.5 -34.5t34.5 -82.5q0 -49 -34.5 -83.5t-83.5 -34.5q-48 0 -82.5 34.5t-34.5 83.5zM822 911v160h156q0 205 101 322t267 117q83 0 178 -30l-53 -140q-58 20 -108 20q-87 0 -143.5 -66t-56.5 -167 q0 -27 5 -56h218v-160h-218v-911h-190v911h-156zM65 911v160h156q0 205 101 322t267 117q83 0 178 -30l-53 -140q-58 20 -108 20q-87 0 -143.5 -66t-56.5 -167q0 -27 5 -56h218v-160h-218v-911h-190v911h-156z" />
<glyph unicode="&#xfb04;" horiz-adv-x="2118" d="M1664 303v1207h190v-1175q0 -86 49.5 -135.5t129.5 -49.5v-170q-369 0 -369 323zM822 911v160h156q0 205 101 322t267 117q83 0 178 -30l-53 -140q-58 20 -108 20q-87 0 -143.5 -66t-56.5 -167q0 -27 5 -56h218v-160h-218v-911h-190v911h-156zM65 911v160h156 q0 205 101 322t267 117q83 0 178 -30l-53 -140q-58 20 -108 20q-87 0 -143.5 -66t-56.5 -167q0 -27 5 -56h218v-160h-218v-911h-190v911h-156z" />
</font>
</defs>
</svg>
